La Luciole :: Messe
 FAQFAQ   RechercherRechercher   MembresMembres   GroupesGroupes   S’enregistrerS’enregistrer 
 ProfilProfil   Se connecter pour vérifier ses messages privésSe connecter pour vérifier ses messages privés   ConnexionConnexion 




Revenge.S01E16.HDTV.x264-LOL.[VTV].mp4

 
Poster un nouveau sujet   Répondre au sujet    La Luciole Index du Forum -> Religion -> Messes
Sujet précédent :: Sujet suivant  
Auteur Message
tabbevalyo


Hors ligne

Inscrit le: 22 Mar 2016
Messages: 36
Localisation: Montpellier

MessagePosté le: Mer 13 Avr - 19:04 (2016)    Sujet du message: Revenge.S01E16.HDTV.x264-LOL.[VTV].mp4 Répondre en citant




Revenge.S01E16.HDTV.x264-LOL.[VTV].mp4 > shorl.com/stukuvumyjypu























































Revenge.S01E16.HDTV.x264-LOL.[VTV].mp4, Rate pate rate pate abcd songs.pk

c244749286
actors Mark Wahlbergs 10 Best Movies Remove advertising . If you want to download the tv torrent Revenge S01E16 HDTV x264 LOL VTV you will need a torrent client. Loading. torrent contents Revenge.S01E16.HDTV.x264-LOL.[VTV].mp4 torrent Revenge.S01E16.HDTV.x264-LOL.[VTV].mp4258.58 Mb torrent search . Toggle navigation Torrents Anime torrents Software torrents Games torrents Adult torrents Movies torrents Music torrents Other torrents Series & TV torrents Books torrents Latest Torrents Releases Searches Hot Torrents FAQ Movies charts Forum Contacts Upload torrent Sign up Log in Advanced search Do you know how to spot a fake torrent? Heres a quick guide Isohunt on facebook Browse Torrents Anime by Popularity Software by Popularity Games by Popularity Adult by Popularity Movies by Popularity Music by Popularity Other by Popularity Series & TV by Popularity Books by Popularity Search plugins uTorrent plugin Browser search plugin Advertising [ remove ] Bad Request Go to the homepage or use search to find what you need. Please don't blame us if your monitor explodes. Sample info: Duration: 00:42:33.19, start: 0.000000, bitrate: 849 kb/s Stream #0.0 : Video: h264, yuv420p, 720x406, 702 kb/s, 23.98 fps, 23.98 tbr, 24k tbn, 47.95 tbc creationtime : 2012-02-29 19:03:57 Stream #0.1 : Audio: aac, 48000 Hz, stereo, s16, 142 kb/s creationtime : 2012-02-28 20:38:18. Revenge S01E16 HDTV x264 LOL VTV Torrents Video Tv 258.58 Mb found 4 years ago seeders:3 leechers:2 your vote: real: 0 fake: 0 . Torrent Metasearch. COPYRIGHT 2016 TorrentDownload.co.

You cannot download the ".torrent" file from here either. Get RSS feed Privacy Policy . If you are lucky the ".torrent" file might still be available on the pages where we found it. There is a list of URLs on top of this page where you might want to start your search. is not affiliated with this website. Related Torrents Transformers Revenge of the Fallen Sub Spa mp41 Year+ 701.35 MB13Revenge S01E16 HDTV x264 LOL1 Year+ 258.58 MB3368Revenge S01E16 HDTV XviD 2HD[ettv]1 Year+ 349.84 MB3825Revenge S01E16 HDTV XviD 2HD1 Year+ 358.22 MB5210Revenge S01E16 HDTV [X264] LOL [SpastikusTV]1 Year+ 258.58 MB151. We don't even cache it. Please note that this page does not hosts or makes available any of the listed filenames. download torrent Download Torrent from torcache.net Download Torrent with Magnet Link Revenge S01E16 HDTV x264 LOL VTV torrent Information about the torrent Revenge S01E16 HDTV x264 LOL VTV. Advertising [ remove ] isoHunt Inc.

duke nukem forever english language packarrow s01e20 myegy{FAGNER A VIDA DE VIAJANTE}video terbaru PNS aceh mesumPowered by Article Dashboard mast generaltipler mosca 6th edition english physics solutions pdfOxford Users\' Guide to Mathematicsphotoscape3.6.3 kurulumcx programmer 8.1.rarGreen vector icons and labels


Revenir en haut
Publicité






MessagePosté le: Mer 13 Avr - 19:04 (2016)    Sujet du message: Publicité

PublicitéSupprimer les publicités ?
Revenir en haut
Montrer les messages depuis:   
Poster un nouveau sujet   Répondre au sujet    La Luciole Index du Forum -> Religion -> Messes Toutes les heures sont au format GMT + 2 Heures
Page 1 sur 1

 

Index | Panneau d’administration | Creer un forum | Forum gratuit d’entraide | Annuaire des forums gratuits | Signaler une violation | Conditions générales d'utilisation
Template Medieval by Mojy, © 2003, 2005 Mojy - Mojytech
Powered by phpBB © 2001, 2005 phpBB Group
Traduction par : phpBB-fr.com